Modern Family S07E11 HDTV x264-KILLERS[rartv]

seeders: 146
leechers: 21
updated:
Added by z0n3212.57M in TV
Torrent verified. Downloaded 123,392 times.

DownloadFast Safe Anonymous
movies, software, shows...
  • View all Modern Family episodes
  • Episode title: Spread Your Wings
  • Episode: S07E11
  • Air date: 13 January 2016
  • IMDb link: 1442437
  • TVmaze link: Modern Family
  • Original run: 23 September 2009 — Present
  • Summary:

    Three different, but related families face trials and tribulations in their own uniquely comedic ways.

    Written by Eppo77.2K
Available in versions: 1080p720p480pHDTVWEBRipx264x265
Modern Family S07E11 HDTV x264-KILLERS[rartv] (Size: 231 MB)
  Modern.Family.S07E11.HDTV.x264-KILLERS.mp4 230.99 MB
  rarbg.com.txt 34 bytes
  Modern.Family.S07E11.HDTV.x264-KILLERS.nfo 10.61 KB

Description


http://rarbg.to
Modern.Family.S07E11.HDTV.x264-KILLERS[rartv]

image
Screens :

image
Mediainfo :

Video
ID : 2
Format : AVC
Format/Info : Advanced Video Codec
Format profile : [email protected]
Format settings, CABAC : Yes
Format settings, ReFrames : 5 frames
Codec ID : avc1
Codec ID/Info : Advanced Video Coding
Duration : 21mn 27s
Source duration : 21mn 27s
Bit rate : 1 389 Kbps
Maximum bit rate : 6 298 Kbps
Width : 720 pixels
Height : 404 pixels
Display aspect ratio : 16:9
Frame rate mode : Constant
Frame rate : 23.976 (24000/1001) fps
Color space : YUV
Chroma subsampling : 4:2:0
Bit depth : 8 bits
Scan type : Progressive
Bits/(Pixel*Frame) : 0.199
Stream size : 213 MiB (92%)
Source stream size : 213 MiB (92%)
Writing library : x264 core 148 r2638 7599210
Encoding settings : cabac=1 / ref=5 / deblock=1:0:0 / analyse=0x3:0x113 / me=umh / subme=8 / psy=1 / psy_rd=1.00:0.00 / mixed_ref=1 / me_range=16 / chroma_me=1 / trellis=1 / 8x8dct=1 / cqm=0 / deadzone=21,11 / fast_pskip=1 / chroma_qp_offset=-2 / threads=13 / lookahead_threads=2 / sliced_threads=0 / nr=0 / decimate=1 / interlaced=0 / bluray_compat=0 / constrained_intra=0 / bframes=3 / b_pyramid=2 / b_adapt=2 / b_bias=0 / direct=3 / weightb=1 / open_gop=0 / weightp=2 / keyint=250 / keyint_min=23 / scenecut=40 / intra_refresh=0 / rc_lookahead=50 / rc=crf / mbtree=1 / crf=19.0 / qcomp=0.60 / qpmin=0 / qpmax=69 / qpstep=4 / ip_ratio=1.40 / aq=1:1.00
Encoded date : UTC 2016-01-14 02:14:26
Tagged date : UTC 2016-01-14 02:33:07
Color range : Limited
Matrix coefficients : BT.709

Audio
ID : 1
Format : AAC
Format/Info : Advanced Audio Codec
Format profile : LC
Codec ID : 40
Duration : 21mn 27s
Bit rate mode : Variable
Bit rate : 112 Kbps
Maximum bit rate : 171 Kbps
Channel(s) : 2 channels
Channel positions : Front: L R
Sampling rate : 48.0 KHz
Frame rate : 46.875 fps (1024 spf)
Compression mode : Lossy
Stream size : 17.1 MiB (7%)
Encoded date : UTC 2016-01-14 02:33:06
Tagged date : UTC 2016-01-14 02:33:07

Related Torrents

torrent name size files age seed leech

Sharing Widget


Download torrent
231 MB
seeders:126
leechers:20
Modern Family S07E11 HDTV x264-KILLERS[rartv]



To share this torrent use the code below and insert it into comments, status messages, forum posts or your signature.

Torrent: Modern Family S07E11 HDTV x264-KILLERS[rartv]

Trackers

tracker name
udp://tracker.openbittorrent.com:80/announce
udp://tracker.publicbt.com:80/announce
udp://9.rarbg.com:2710/announce
udp://tracker.coppersurfer.tk:6969/announce
udp://9.rarbg.me:2710/announce
udp://glotorrents.pw:6969/announce
udp://11.rarbg.com:80/announce
udp://9.rarbg.to:2710/announce
udp://torrent.gresille.org:80/announce
udp://tracker.opentrackr.org:1337/announce
µTorrent compatible trackers list

Locations

name
KickassTorrents
Torrent hash: 3B9772F833205B0CFA3898E3654D166F411BC405

All Comments

audio
9/10
video
9/10
please, leave only comments related to that torrent
Sign In

User Opinions

alotofthings10.08K, Stoned625092, Shrey.m949, nevena840, mrruffian679, fothadee600, mikilaum415, og1287, suman_d227, Jason.X118 ... And 1256 more
geekfactory2317, Pelete1935, holyyy1735, bmba1989905, dolfiw156327, s2p61k3n4r413
Report a bug Open chat