Modern Family S07E09 HDTV x264-KILLERS[rartv]

seeders: 49
leechers: 3
updated:
Added by z0n3212.58M in TV
Torrent verified. Downloaded 13,922 times.

DownloadFast Safe Anonymous
movies, software, shows...
  • View all Modern Family episodes
  • Episode title: White Christmas
  • Episode: S07E09
  • Air date: 09 December 2015
  • IMDb link: 1442437
  • TVmaze link: Modern Family
  • Original run: 23 September 2009 — Present
  • Summary:

    Three different, but related families face trials and tribulations in their own uniquely comedic ways.

    Written by Eppo77.2K
Available in versions: 1080p720p480pHDTVWEBRipx264x265
Modern Family S07E09 HDTV x264-KILLERS[rartv] (Size: 198.97 MB)
  Modern.Family.S07E09.HDTV.x264-KILLERS.mp4 198.95 MB
  rarbg.com.txt 34 bytes
  Modern.Family.S07E09.HDTV.x264-KILLERS.nfo 10.61 KB

Description


http://rarbg.to
Modern.Family.S07E09.HDTV.x264-KILLERS[rartv]

image
Screens :

image
Mediainfo :

Video
ID : 2
Format : AVC
Format/Info : Advanced Video Codec
Format profile : [email protected]
Format settings, CABAC : Yes
Format settings, ReFrames : 5 frames
Codec ID : avc1
Codec ID/Info : Advanced Video Coding
Duration : 21mn 24s
Source duration : 21mn 24s
Bit rate : 1 182 Kbps
Maximum bit rate : 3 822 Kbps
Width : 720 pixels
Height : 404 pixels
Display aspect ratio : 16:9
Frame rate mode : Constant
Frame rate : 23.976 fps
Color space : YUV
Chroma subsampling : 4:2:0
Bit depth : 8 bits
Scan type : Progressive
Bits/(Pixel*Frame) : 0.170
Stream size : 181 MiB (91%)
Source stream size : 181 MiB (91%)
Writing library : x264 core 148 r2638 7599210
Encoding settings : cabac=1 / ref=5 / deblock=1:0:0 / analyse=0x3:0x113 / me=umh / subme=8 / psy=1 / psy_rd=1.00:0.00 / mixed_ref=1 / me_range=16 / chroma_me=1 / trellis=1 / 8x8dct=1 / cqm=0 / deadzone=21,11 / fast_pskip=1 / chroma_qp_offset=-2 / threads=13 / lookahead_threads=2 / sliced_threads=0 / nr=0 / decimate=1 / interlaced=0 / bluray_compat=0 / constrained_intra=0 / bframes=3 / b_pyramid=2 / b_adapt=2 / b_bias=0 / direct=3 / weightb=1 / open_gop=0 / weightp=2 / keyint=250 / keyint_min=23 / scenecut=40 / intra_refresh=0 / rc_lookahead=50 / rc=crf / mbtree=1 / crf=19.0 / qcomp=0.60 / qpmin=0 / qpmax=69 / qpstep=4 / ip_ratio=1.40 / aq=1:1.00
Encoded date : UTC 2015-12-10 02:14:07
Tagged date : UTC 2015-12-10 02:31:28
Color range : Limited
Matrix coefficients : BT.709

Audio
ID : 1
Format : AAC
Format/Info : Advanced Audio Codec
Format profile : LC
Codec ID : 40
Duration : 21mn 24s
Bit rate mode : Variable
Bit rate : 113 Kbps
Maximum bit rate : 169 Kbps
Channel(s) : 2 channels
Channel positions : Front: L R
Sampling rate : 48.0 KHz
Compression mode : Lossy
Stream size : 17.3 MiB (9%)
Encoded date : UTC 2015-12-10 02:31:28
Tagged date : UTC 2015-12-10 02:31:28

Related Torrents

torrent name size files age seed leech

Sharing Widget


Download torrent
198.97 MB
seeders:49
leechers:3
Modern Family S07E09 HDTV x264-KILLERS[rartv]



To share this torrent use the code below and insert it into comments, status messages, forum posts or your signature.

Torrent: Modern Family S07E09 HDTV x264-KILLERS[rartv]

Trackers

tracker name
udp://tracker.openbittorrent.com:80/announce
udp://tracker.publicbt.com:80/announce
udp://tracker.coppersurfer.tk:6969/announce
http://tracker.aletorrenty.pl:2710/announce
udp://glotorrents.pw:6969/announce
µTorrent compatible trackers list

Locations

name
KickassTorrents
Torrent hash: 31A6559013CC178A81C9E9135A1AE04BBAF37450

All Comments

audio
9/10
video
9/10
please, leave only comments related to that torrent
Sign In

audio: 10video: 10
fantastic! thanks, mate loveliness
audio: 9video: 9
thanks again
audio: 9video: 9
Thanks a lot - v.good up, v.good quality. Appreciated thump_upcoolthump_up
audio: 10video: 10
Thank-you!
audio: 10video: 10
Great Quality. Thank you for sharing :)
audio: 10video: 10
ty for the upload...
Show More All

User Opinions

mordecai7746K, burningbush10.64K, wunnspeed10.39K, Bremanesk9511, theyash30007491, KarmaOverDogma5568, UserIndex2712, Saiyan.Prince1290, nevena840, hitesh_sharma421 ... And 89 more
Report a bug Open chat